Movies Download

True Lies (1994) BDRip 720p x264 {Dual Audio} [Hindi – English] – Hon3yHD

Poster

iMDB

Imdb Picture Title: True Lies
Year: 1994
Runtime: 141 minutes
Votes: 202215
Rating: 7.2/10
Language: English, French, Arabic, German
Country: USA
All Genres: Action, Comedy, Thriller
Plot Outline: A fearless, globe-trotting, terrorist-battling secret agent has his life turned upside down when he discovers his wife might be having an affair with a used car salesman while terrorists smuggle nuclear war heads into the United States.
Tagline: When he said I do, he never said what he did.
Director: James Cameron
Writing By: Claude Zidi,Simon Michaël,Didier Kaminka,James Cameron,
Produced By: Stephanie Austin,James Cameron,Pamela Easley,Lawrence Kasanoff,Rae Sanchini,Robert Shriver,
Music: Brad Fiedel
Cast:
Arnold Schwarzenegger as Harry Tasker
Jamie Lee Curtis as Helen Tasker
Tom Arnold as Albert Gibson
Bill Paxton as Simon
Tia Carrere as Juno Skinner
Art Malik as Salim Abu Aziz
Eliza Dushku as Dana Tasker
Grant Heslov as Faisil
Charlton Heston as Spencer Trilby
Marshall Manesh as Jamal Khaled

Details

Name:True.Lies.1994.HDRip.720p.x264.{Dual.Audio}.[Hindi Org-English].-.Hon3yHD
Description:

True Lies (1994) BDRip 720p x264 {Dual Audio} [Hindi Org-English] – Hon3yHD

Format                      : Matroska
Format version              : Version 4 / Version 2
File size                   : 1.44 GiB
Duration                    : 2 h 20 min
Overall bit rate            : 1 459 kb/s
Movie name                  : ~Hammer~

Video
ID                          : 1
Format                      : AVC
Format/Info                 : Advanced Video Codec
Format profile              : [email protected]
Format settings             : CABAC / 8 Ref Frames
Format settings, CABAC      : Yes
Format settings, ReFrames   : 8 frames
Codec ID                    : V_MPEG4/ISO/AVC
Duration                    : 2 h 20 min
Bit rate                    : 1 200 kb/s
Width                       : 1 280 pixels
Height                      : 720 pixels
Display aspect ratio        : 16:9
Frame rate mode             : Constant
Frame rate                  : 23.976 (24000/1001) FPS

Audio #1
ID                          : 2
Format                      : AAC
Format/Info                 : Advanced Audio Codec
Format profile              : LC
Codec ID                    : A_AAC-2
Duration                    : 2 h 20 min
Bit rate                    : 128 kb/s
Channel(s)                  : 2 channels
Channel positions           : Front: L R
Sampling rate               : 48.0 kHz
Frame rate                  : 46.875 FPS (1024 SPF)
Compression mode            : Lossy
Delay relative to video     : -21 ms
Stream size                 : 129 MiB (9%)
Title                       : Stereo
Language                    : Hindi

Audio #2
ID                          : 3
Format                      : AAC
Format/Info                 : Advanced Audio Codec
Format profile              : LC
Codec ID                    : A_AAC-2
Duration                    : 2 h 20 min
Bit rate                    : 128 kb/s
Channel(s)                  : 2 channels
Channel positions           : Front: L R
Sampling rate               : 48.0 kHz
Frame rate                  : 46.875 FPS (1024 SPF)
Compression mode            : Lossy
Delay relative to video     : -21 ms
Stream size                 : 129 MiB (9%)
Title                       : Stereo
Language                    : English

       

Category:Movies > Hollywood Dub
Lang:Hindi
Total Size:1.44 GB

|| Download This Movie Via Single Resumable Links Size: 1.44 GB ||

Direct-1 Google Drive | Direct-2 | Direct-3 |

Watch Online Click Here

Incoming search terms: